史萊姆論壇

返回   史萊姆論壇 > 教學文件資料庫 > 多媒體影音轉檔燒錄技術文件
忘記密碼?
論壇說明 標記討論區已讀

歡迎您來到『史萊姆論壇』 ^___^

您目前正以訪客的身份瀏覽本論壇,訪客所擁有的權限將受到限制,您可以瀏覽本論壇大部份的版區與文章,但您將無法參與任何討論或是使用私人訊息與其他會員交流。若您希望擁有完整的使用權限,請註冊成為我們的一份子,註冊的程序十分簡單、快速,而且最重要的是--註冊是完全免費的!

請點擊這裡:『註冊成為我們的一份子!』

Google 提供的廣告


 
 
主題工具 顯示模式
舊 2004-01-04, 09:40 AM   #1
psac
榮譽會員
 
psac 的頭像
榮譽勳章
UID - 3662
在線等級: 級別:30 | 在線時長:1048小時 | 升級還需:37小時級別:30 | 在線時長:1048小時 | 升級還需:37小時級別:30 | 在線時長:1048小時 | 升級還需:37小時級別:30 | 在線時長:1048小時 | 升級還需:37小時級別:30 | 在線時長:1048小時 | 升級還需:37小時
註冊日期: 2002-12-07
住址: 木柵市立動物園
文章: 17381
現金: 5253 金幣
資產: 33853 金幣
預設 將APE燒錄成CD

Q:
很多下載的ape都帶有cue文件,不過,很多cue文件的內容有錯誤,ape解開wav以後,用daemon tools不能正確載入cue文件。

其實解決方法很簡單:
修改cue文件,使他像下面這個樣子:(如果沒有cue文件,可以按下面格式做一個)

PERFORMER "Unknown Artist"
TITLE "Unknown Title"
FILE "I:\Various Artists.Voices.世紀之聲.APE\Track01.wav" WAVE
TRACK 01 AUDIO
TITLE "Track01"
PERFORMER "Unknown Artist"
INDEX 01 00:00:00
FILE "I:\Various Artists.Voices.世紀之聲.APE\Track02.wav" WAVE
TRACK 02 AUDIO
TITLE "Track02"
PERFORMER "Unknown Artist"
INDEX 01 00:00:00
………

有多少個wav文件就寫多少組。修改好以後,可以就daemon tools來模擬了,media player也能夠正確查出cd info。

最後用nero的cd copy刻碟就可以了。

歡迎大家討論。


A:
如果是整個碟才一個cue文件,且錯了 就沒得救了
如果都分軌好了 得 又何必去弄出一個cue文件出來那
直接刻 比如用nero
因為cue文件是為了實現cd(音樂cd)的完美再現來的!
這是我的試用習慣拉
不過瞭解一下cue文件的文本信息的意思也好
有一些問題可以看看!!

用 CDRCue Cuesheet Editor 會方便很多

CDRCue Cuesheet Editor 1.3

http://soft.km169.net/soft/html/3095.htm
or:
http://www.dcsoft.com/ftp/CUE.EXE

Name: ReanimatoR^LasH s/n: e745d2a8-4885ba98-88a881ea-d546351d or
Name: cLUSTER s/n: e3df13f2-781ec2c0-49c1bf28-196d9584

關於你上面的這個方法的問題?
這樣做出的cd中間好像沒有停頓,就像歌曲大合唱!
FILE "Track07.wav" WAVE
TRACK 07 AUDIO
PREGAP 00:02:00
INDEX 01 00:00:00

Q:

pregap是什麼指令?cue工具裡怎麼沒這個指令?要是每一首曲目中間都加停頓該如何處理?

A:

pregap是"前空隙時間"吧,
應放在TRACK和TITLE之間.
Q:

其實並非CUE文件有錯誤,而是不相容!

如果用EAC抓軌,並帶有正確Gap信息的CUE(多個文件),不能夠用D-tools模擬,也不能用Nero燒錄,也不能用CDRWin。但使用EAC燒錄就沒有問題!而且還可以將原盤的Gap信息也正確燒錄。(我做了不少嘗試,目前只發現EAC可以正確燒錄)

如果改變了Cue用Nero燒錄,Gap信息也就丟了。

另外我建議大家把log文件也一起上傳,這裡面的信息也有些參考價值

A:
使用CUE其實不為別的,就是為了保證CUE裡Index 00的部分被正確燒錄。怎麼說呢,大家一定見過一首曲目放到結束時會出現-00:02這種時間,就是距離下一首曲目還有的時間,這種負值就是Index 00的效果。據我使用下來的經驗,以分割好的APE為例(單個APE的CD是以絕對時間來控制的),Index 00是下一首曲目開始的時間,以當前曲目的相對時間為依據,Index 01是下一首曲目開始的相對時間(所以都是00:00:00),Index 02是當前曲目結束的相對時間(不過在時間顯示上似乎沒什麼異樣)。如果我們不追求把那個負值的索引時間也燒錄出來,完全可以不依靠CUE文件,只要能分割出每一首曲目的wav,用什麼軟體都可以燒錄。但是,如果你想獲得和原CD一模一樣的時間標識,就必須依賴CUE文件。我到目前為止還沒有發現如何不用Index 00來獲得負值索引效果,而用了Index 00 CloneCD等非EAC軟體就會報錯,無法匯入文件,原因就是Index 00都是寫在下一個TRACK之前的,就像
FILE "Track01.wav" WAVE
 TRACK 01 AUDIO
  TITLE "Track01"
  PERFORMER "Unknown Artist"
  INDEX 01 00:00:00
 TRACK 02 AUDIO
  INDEX 00 05:31:70
FILE "Track02.wav" WAVE
  TITLE "Track02"
  PERFORMER "Unknown Artist"
  INDEX 00 00:00:00
……………………………………
由於TRACK 02的INDEX 00在使用FILE "Track02.wav"之前出現,CloneCD就會「找不到文件的開始位置」了,Nero就更離譜了,這就是個最大的問題!還沒找到除了EAC能解決的,EAC又和很多的燒錄機不相容(我們用的大多數燒錄機國外都是沒有的),CDRWin複雜不過,但也解決不了這個問題,所以這個問題非常的棘手。

我覺得使用CUE文件就是為了能燒錄出和原始CD佈局一模一樣的效果,如果你不刻意追求這一點,大可以用Nero燒錄單獨的WAV文件,但這總歸是個問題,希望有高手能解惑。




Q:

看了還是有點迷糊
簡單的問一句,下載了ape和cue以後,怎麼燒刻最好最方便?
以前試著用nero刻cue,可是很多歌都是壞的,只能直接把wav加入來刻。
這樣那個cue就沒用了。


A:

先用 Monkey's Audio 解成 wav,然後用 eac 載入 cue 直接 burn,這樣刻出來的 cd 保證和原來一模一樣!

Q:
我都按的做了,可是在用daemon tools虛擬時還是出這樣的錯誤,大家幫我看看,還有哪堨X錯了?謝謝!

A:
CUE中使用的文件格式是WAV,你老兄還沒把APE解壓出來就用Daemon虛擬了,WAV文件沒找到,當然會出錯啊!
Q:
請教,怎麼把APE解壓出來啊?謝謝啦!

A:
沒好好研究前面置頂的主題吧!
先安裝 Monkey's Audio,壓縮/解壓 APE 文件都靠他了!

第一步! 新建資料夾

第二步,調入APE文件後,按F8,或者點「選項」——「輸出」,來選項WAV的輸出位置,如果當前目錄所在的分區空間不夠了,可以選項其他分區的目錄。當然,如果輸出到其他目錄了,CUE文件中的WAV文件路徑就要修改!


最後,可以開始解壓了!
像我操作的時候由於F硬碟不夠空間了,只好解壓到D碟,所以解壓完了以後要把CUE文件中的WAV目錄都改成「D:\惠威試音碟」,最後再檢查一下解壓出來的WAV檔案名稱和CUE文件中的是否一致,驗證無誤後就可以用Daemon虛擬了!


Q:
我都想,但我的MP7240A EAC 就是不認。CD 放進去也報無音瀕CD。

請定要幫小弟想個辦法。 先謝了。
A:
不認光碟的情況試試昇級ASPI驅動!
我開始EAC一直不認我的燒錄機,下了那個aspi_v472a仍然不行。
後來到Neor下了個wnaspi32.dll,直接EAC目錄裡面,然後在EAC的interface裡面設定為installed external ASPI interface.重啟EAC,搞定!

希望能對碰到同樣問題的朋友有所說明 !
另推毽!你如是Plex cdr/w機使用PlexTools,這工具能直接錄製/燒錄wav、mp3、ape、ogg。非常方便!
Download URL:
PlexTools 1.03 原版,CDBEST提供:http://www.cdbest.net/temp/Plextor_PlexTools_103.zip
PlexTools 1.20A Update:http://www.plextor.be/download/ftp1/PT120AUEN.exe


Q: nero可不支援!APE?

A:
你可找到個For nero的ape plug-in!我測試過沒問題,希望對非使用plextor燒錄機的朋友有所說明 。
使用方法:將nxMyAPE.dll解壓到「C:\Program Files\Ahead\Shared\AudioPlugins」即可。
不推薦這個.....................
這個只不過是靠NERO的Plugin一邊解壓一邊刻而已

還不如老老實實解成WAV刻碟!
Q:
nero的ape plug-in 是不是不支持nero 6 ?
A:

支持nero 6的新版APE插件。(version 1.0.0.33)

直接將此文件解壓到:C:\Program Files\Common Files\Ahead\AudioPlugins\目錄下即可使用。
附件: nxmyape.zip

http://www.google.co.jp/search?q=cac...hl=ja&ie=UTF-8

快心ing and already burn 1 pcs of APE

Q:
參照了一些CUE的格式,用了這個格式,EAC可以識別出來。
PERFORMER "演唱者"
TITLE "碟名"
FILE "01-歌曲1.wav" WAVE
TRACK 01 AUDIO
TITLE "歌曲1"
PERFORMER "演唱者"
FLAGS DCP
INDEX 01 00:00:00
FILE "02-歌曲2.wav" WAVE
TRACK 02 AUDIO
TITLE "歌曲2"
PERFORMER "演唱者"
FLAGS DCP
INDEX 01 00:00:00
FILE "03-歌曲3.wav" WAVE
TRACK 03 AUDIO
TITLE "歌曲3"
PERFORMER "演唱者"
FLAGS DCP
INDEX 01 00:00:00
FILE "04-歌曲4.wav" WAVE
TRACK 04 AUDIO
TITLE "歌曲4"
PERFORMER "演唱者"
FLAGS DCP
INDEX 01 00:00:00
FILE "05-歌曲5.wav" WAVE
TRACK 05 AUDIO
TITLE "歌曲5"
PERFORMER "演唱者"
FLAGS DCP
INDEX 01 00:00:00
FILE "06-歌曲6.wav" WAVE
TRACK 06 AUDIO
TITLE "歌曲6"
PERFORMER "演唱者"
FLAGS DCP
INDEX 01 00:00:00
FILE "07-歌曲7.wav" WAVE
TRACK 07 AUDIO
TITLE "歌曲7"
PERFORMER "演唱者"
FLAGS DCP
INDEX 01 00:00:00
FILE "08-歌曲8.wav" WAVE
TRACK 08 AUDIO
TITLE "歌曲8"
PERFORMER "演唱者"
FLAGS DCP
INDEX 01 00:00:00
FILE "09-歌曲9.wav" WAVE
TRACK 09 AUDIO
TITLE "歌曲9"
PERFORMER "演唱者"
FLAGS DCP
INDEX 01 00:00:00
FILE "10-歌曲10.wav" WAVE
TRACK 10 AUDIO
TITLE "歌曲10"
PERFORMER "演唱者"
FLAGS DCP
INDEX 01 00:00:00


FLAGS DCP是什麼意思?


A:
增幅
旗標
Q:

問個燒錄速度的問題,我用24X刻,不會有什麼問題吧,用8X和24X刻有什麼區別?用高速燒錄對音質會有什麼影響嗎?謝謝!

A:

當然會有問題!如果你燒好的碟,是用到CD播放機上放,那麼高速刻的盤
(至少容易震動)
有可能會出現讀盤困難,畢竟CD播放機是單倍速的,而且可能會出現爆音。如果在電腦的光碟上放,則可能沒有什麼問題,但推薦大家用低速刻,畢竟這樣刻出來的碟相容性會更好。這就是三菱的黑膠盤為什麼沒有高速的原因,它推薦的是用2X的速度,根據我個人的經驗,控制在8X以下,就沒有多大問題了。
一般都使用快些4X速度,也就花個20分鐘一張而已!

Q:
我下載了"惠威試音碟1.[VeryCD.com].cue"但是不能播放,不知什麼原因??我有把"惠威試音碟1.[VeryCD.com].ape跟惠威試音碟1.[VeryCD.com].cue"放在同一個目錄下

惠威試音碟1的cue內容:

PERFORMER "惠威試音碟1"
TITLE "惠威試音碟1"
FILE "惠威試音碟1.ape" WAVE
TRACK 01 AUDIO
TITLE "雪花飛揚"
PERFORMER "郭峰 電子合成器"
FLAGS DCP
INDEX 01 00:00:00
TRACK 02 AUDIO
TITLE "女聲清唱"
PERFORMER "試音方程式"
FLAGS DCP
INDEX 01 04:07:70
TRACK 03 AUDIO
TITLE "shania Fuain"
PERFORMER "流行歌曲"
FLAGS DCP
INDEX 01 06:15:70
TRACK 04 AUDIO
TITLE "渡口"
PERFORMER "蔡琴 流行歌曲"
FLAGS DCP
INDEX 01 09:34:47
TRACK 05 AUDIO
TITLE "達阪城姑娘"
PERFORMER "八隻眼 男聲合唱"
FLAGS DCP
INDEX 01 13:21:50
TRACK 06 AUDIO
TITLE "加州旅店"
PERFORMER "老鷹樂隊"
FLAGS DCP
INDEX 01 15:16:30
TRACK 07 AUDIO
TITLE "鼓詩"
PERFORMER "閆學敏 炎黃第一鼓"
FLAGS DCP
INDEX 01 19:34:29
TRACK 08 AUDIO
TITLE "紅燈記"
PERFORMER "京劇女聲"
FLAGS DCP
INDEX 01 23:15:47
TRACK 09 AUDIO
TITLE "張三的歌"
PERFORMER "蔡琴 流行歌曲"
FLAGS DCP
INDEX 01 24:12:23
TRACK 10 AUDIO
TITLE "低音王"
PERFORMER "低音提琴"
FLAGS DCP
INDEX 01 28:58:64
TRACK 11 AUDIO
TITLE "Denon"
PERFORMER "Hi-Fi 管絃樂"
FLAGS DCP
INDEX 01 30:28:69
TRACK 12 AUDIO
TITLE "波羅吉他"
PERFORMER "器樂"
FLAGS DCP
INDEX 01 33:49:55
TRACK 13 AUDIO
TITLE "琵琶對薩克斯"
PERFORMER "器樂"
FLAGS DCP
INDEX 01 37:10:07
TRACK 14 AUDIO
TITLE "黃河的水干了"
PERFORMER "騰格爾 流行歌曲"
FLAGS DCP
INDEX 01 38:37:28
TRACK 15 AUDIO
TITLE "穆特小提琴1"
PERFORMER "獨奏"
FLAGS DCP
INDEX 01 39:47:17
TRACK 16 AUDIO
TITLE "穆特小提琴4"
PERFORMER "獨奏"
FLAGS DCP
INDEX 01 42:47:34
TRACK 17 AUDIO
TITLE "one I love"
PERFORMER "女聲清唱"
FLAGS DCP
INDEX 01 45:35:08
TRACK 18 AUDIO
TITLE "葬心"
PERFORMER "黃鶯鶯 流行歌曲"
FLAGS DCP
INDEX 01 48:29:27
TRACK 19 AUDIO
TITLE "高山流水"
PERFORMER "古箏"
FLAGS DCP
INDEX 01 53:31:03
TRACK 20 AUDIO
TITLE "梁祝"
PERFORMER "小提琴"
FLAGS DCP
INDEX 01 54:25:01
TRACK 21 AUDIO
TITLE "發燒傳統"
PERFORMER "交響樂"
FLAGS DCP
INDEX 01 55:15:29
TRACK 22 AUDIO
TITLE "古琴對嗩吶"
PERFORMER "民族樂器"
FLAGS DCP
INDEX 01 56:54:11
TRACK 23 AUDIO
TITLE "狩獵波爾卡"
PERFORMER "交響樂"
FLAGS DCP
INDEX 01 58:19:15
TRACK 24 AUDIO
TITLE "偏偏喜歡你"
PERFORMER "區瑞強 流行歌曲"
FLAGS DCP
INDEX 01 60:28:74
TRACK 25 AUDIO
TITLE "山高水遠"
PERFORMER " DTS音樂"
FLAGS DCP
INDEX 01 64:03:25


A:


把下載的惠威試音碟的ape和cue文件中的[VeryCD.com]刪除後,放在同一個資料夾中應該就可以了
psac 目前離線  
送花文章: 3, 收花文章: 1631 篇, 收花: 3205 次
 


主題工具
顯示模式

發表規則
不可以發文
不可以回覆主題
不可以上傳附加檔案
不可以編輯您的文章

論壇啟用 BB 語法
論壇啟用 表情符號
論壇啟用 [IMG] 語法
論壇禁用 HTML 語法
Trackbacks are 禁用
Pingbacks are 禁用
Refbacks are 禁用


所有時間均為台北時間。現在的時間是 07:20 AM


Powered by vBulletin® 版本 3.6.8
版權所有 ©2000 - 2022, Jelsoft Enterprises Ltd.


SEO by vBSEO 3.6.1