查看單個文章
舊 2012-10-24, 10:56 PM   #1
不飛 帥哥
論壇主管
 
不飛 的頭像
榮譽勳章
UID - 236817
在線等級: 級別:192 | 在線時長:37991小時 | 升級還需:30小時級別:192 | 在線時長:37991小時 | 升級還需:30小時級別:192 | 在線時長:37991小時 | 升級還需:30小時級別:192 | 在線時長:37991小時 | 升級還需:30小時級別:192 | 在線時長:37991小時 | 升級還需:30小時級別:192 | 在線時長:37991小時 | 升級還需:30小時級別:192 | 在線時長:37991小時 | 升級還需:30小時
註冊日期: 2002-12-05
VIP期限: 無限期
住址: 鄭燮之板橋
文章: 13448
現金: 7949 金幣
資產: 2615877 金幣
Lightbulb 用 Nero 燒錄 APE & FLAC 音樂光碟

目前網速提升,動則下載以 200KB/Sec 起跳,
所以音樂光碟壓縮不再侷限在 MP3 會是 WMA 格式,'
目前流行用 APE 或是 FLAC 無損音質格式壓制,
下載檔案之後,發現不會燒錄還原回音樂光碟,
現在說明一種簡單方式,然後利用大家做常用的 Nero 來燒錄光碟。

首先,APE 跟 FLAC 多媒體格式是把整張音樂光碟壓縮成高音質無失真的狀態,
不是每一個人的電腦都可以撥放,
所以有許多人安裝了 K-Lite 萬用編碼包來播放罕見的多媒體,
但是這樣不見得就能夠燒錄還原音樂 CD ,
所以必須下載 APE 跟 FLAC 專用編碼器,

下載 : 點我到下載頁面點右鍵選下載

下載壓縮檔案之後,解壓縮,然後放置到以下位置 :
C:\Program Files\Common Files\Ahead\AudioPlugins\ 之下,

然後對著 *.CUE 檔案點右鍵,選以 Nero 開啟,

http://imageshack.us/a/img33/1648/flacj.jpg

這樣以後就可以聽取完美的原版音樂光碟了。

注意 :
多媒體檔案下載下來,
一律改變檔名成 CDImage 或是英文單字,而且大小寫必須一致,
或許有些朋友會發現下載完整但是不能燒錄並且 Nero 跳出錯誤訊息的現象,

這時候就需要把原先的檔案名稱加工了,個人建議改成 CDImage ,
改完檔案名稱之後,
請點 *.cue 檔案右鍵,然後選用記事本 (Notepad) 開啟,

http://imageshack.us/a/img819/7668/notepady.jpg

這時候就會看到下方文字 :

引用:
REM DATE 2012
PERFORMER "桲屻滬"
TITLE "衄倛腔喔基"
FILE "岆扂.flac" WAVE
TRACK 01 AUDIO
TITLE "That Girl"
INDEX 01 00:00:00
TRACK 02 AUDIO
TITLE "邀迾珨眻軗"
INDEX 01 03:35:08
TRACK 03 AUDIO
TITLE "郔輪疑鎘?"
INDEX 01 07:00:01
TRACK 04 AUDIO
TITLE "衄倛腔喔基"
INDEX 01 11:11:10
TRACK 05 AUDIO
TITLE "扂羶蜊曹"
INDEX 01 14:47:18
TRACK 06 AUDIO
TITLE "蔡祥泭"
INDEX 01 19:31:55
TRACK 07 AUDIO
TITLE "Honesty"
INDEX 01 23:20:21
TRACK 08 AUDIO
TITLE "If I'm The One For You"
INDEX 01 28:05:21
TRACK 09 AUDIO
TITLE "卼赽瓷"
INDEX 01 31:54:29
TRACK 10 AUDIO
TITLE "倗萊賬藤"
INDEX 01 35:37:23
TRACK 11 AUDIO
TITLE "岆扂"
INDEX 01 38:58:28
裡面都是亂碼,難怪 Nero 不認識,
這時候只要把 FILE "岆扂.flac" WAVE 改成 FILE "CDImage.flac" WAVE 然後存檔之後就可以燒錄了。

另外注意一點,
檔案格式如果是 APE 的話,請改成 CDImage.ape
檔案格式如果是 FLAC 的話,請改成 CDImage.flac 。


__________________
不飛的不飛 ... 因為曾經端座在雲霄之上 ... 所以不飛 ,
因為期待您能與不飛抬頭共列翱翔天昊 ... 所以更是不飛 !

不飛不想飛 ... 畢竟殘破雙翼在苔階沾濕 ... 所以低頭 ,
只好安靜地蹲在這練習 ... 學習要如何才能飛的更高更遠 !

不飛不曾飛 ... 終於知道青澀期代表蒼狗 ... 所以情殤 ,
一甲子的意境等於六十年的期盼的凝固 ... 所以就此棲巢 !
不飛 目前離線  
送花文章: 640, 收花文章: 6728 篇, 收花: 43186 次
+20 金幣
有 9 位會員向 不飛 送花:
atie (2012-10-27),brian64 (2012-10-28),formosa (2013-06-29),K22514 (2012-11-20),magicwoo (2012-11-20),penghu (2014-11-01),Stolotonor (2017-10-28),格魯 (2014-06-09),米奇 (2012-10-24)
感謝您發表一篇好文章